Bhaskar Oru Rascal (2018) Ultra HD 4K - Untouched - AVC - Dolby ® 5.1 - Esubs-MTR

Bhaskar Oru Rascal (2018) Ultra HD 4K - Untouched - AVC - Dolby ® 5.1 - Esubs-MTR





General
Format                      : MPEG-4
Codec ID                    : M4V  (isom/avc1/mp42)
File size                   : 5.67 GiB
Duration                    : 2 h 25 min
Overall bit rate mode       : Variable
Overall bit rate            : 5 584 kb/s
Encoded date                : UTC 2018-05-31 07:32:07
Tagged date                 : UTC 2018-05-31 07:32:07

Video
ID                          : 1
Format                      : AVC
Format/Info                 : Advanced Video Codec
Format profile              : Main@L5.1
Format settings, CABAC      : Yes
Format settings, RefFrames  : 3 frames
Codec ID                    : avc1
Codec ID/Info               : Advanced Video Coding
Duration                    : 2 h 25 min
Bit rate mode               : Constant
Bit rate                    : 5 000 kb/s
Maximum bit rate            : 12.2 Mb/s
Width                       : 3 840 pixels
Height                      : 2 160 pixels
Display aspect ratio        : 16:9
Frame rate mode             : Constant
Frame rate                  : 25.000 FPS
Standard                    : PAL
Color space                 : YUV
Chroma subsampling          : 4:2:0
Bit depth                   : 8 bits
Scan type                   : Progressive
Bits/(Pixel*Frame)          : 0.024
Stream size                 : 5.08 GiB (90%)
Encoded date                : UTC 2018-05-31 07:32:07
Tagged date                 : UTC 2018-05-31 07:32:07
Color range                 : Limited
Color primaries             : BT.709
Transfer characteristics    : BT.709
Matrix coefficients         : BT.709

Audio #1
ID                          : 2
Format                      : AAC
Format/Info                 : Advanced Audio Codec
Format profile              : LC
Codec ID                    : 40
Duration                    : 2 h 25 min
Bit rate mode               : Variable
Bit rate                    : 128 kb/s
Maximum bit rate            : 133 kb/s
Channel(s)                  : 2 channels
Channel positions           : Front: L R
Sampling rate               : 48.0 kHz
Frame rate                  : 46.875 FPS (1024 SPF)
Compression mode            : Lossy
Stream size                 : 130 MiB (2%)
Encoded date                : UTC 2018-05-31 07:32:07
Tagged date                 : UTC 2018-05-31 07:32:07

Audio #2
ID                          : 3
Format                      : AC-3
Format/Info                 : Audio Coding 3
Format settings, Endianness : Big
Codec ID                    : ac-3
Duration                    : 2 h 25 min
Bit rate mode               : Constant
Bit rate                    : 448 kb/s
Channel(s)                  : 6 channels
Channel positions           : Front: L C R, Side: L R, LFE
Sampling rate               : 48.0 kHz
Frame rate                  : 31.250 FPS (1536 SPF)
Bit depth                   : 16 bits
Compression mode            : Lossy
Stream size                 : 466 MiB (8%)
Service kind                : Complete Main
Encoded date                : UTC 2018-05-31 07:32:07
Tagged date                 : UTC 2018-05-31 07:32:07





SINGLE DIRECT FAST LINKS

http://www.heroupload.us/44e9b091713eea79/Bhaskar.Oru.Rascal.2018.4K.Untouched.UHD.MP4.ESubs.Tamil-MTR.mp4


1GB LINKS

http://www.heroupload.us/450112a13c13d921/Bhaskar.Oru.Rascal.2018.4K.Untouched.UHD.MP4.ESubs.Tamil-MTR.part1.rar
http://www.heroupload.us/9c942c89ca3691b3/Bhaskar.Oru.Rascal.2018.4K.Untouched.UHD.MP4.ESubs.Tamil-MTR.part2.rar
http://www.heroupload.us/1370189ba23ab7c7/Bhaskar.Oru.Rascal.2018.4K.Untouched.UHD.MP4.ESubs.Tamil-MTR.part3.rar
http://www.heroupload.us/90e68c572c1d3a52/Bhaskar.Oru.Rascal.2018.4K.Untouched.UHD.MP4.ESubs.Tamil-MTR.part4.rar
http://www.heroupload.us/e6a49c0dfd05951c/Bhaskar.Oru.Rascal.2018.4K.Untouched.UHD.MP4.ESubs.Tamil-MTR.part5.rar
http://www.heroupload.us/2da6614ac5d8ebbe/Bhaskar.Oru.Rascal.2018.4K.Untouched.UHD.MP4.ESubs.Tamil-MTR.part6.rar
http://www.heroupload.us/bdc83fcd040b677b/Bhaskar.Oru.Rascal.2018.4K.Untouched.UHD.MP4.ESubs.Tamil-MTR.srt



http://filefloater.com/1jiQ/Bhaskar.Oru.Rascal.2018.4K.Untouched.UHD.MP4.ESubs.Tamil-MTR.part1.rar
http://filefloater.com/1jiR/Bhaskar.Oru.Rascal.2018.4K.Untouched.UHD.MP4.ESubs.Tamil-MTR.part2.rar
http://filefloater.com/1jiS/Bhaskar.Oru.Rascal.2018.4K.Untouched.UHD.MP4.ESubs.Tamil-MTR.part3.rar
http://filefloater.com/1jiT/Bhaskar.Oru.Rascal.2018.4K.Untouched.UHD.MP4.ESubs.Tamil-MTR.part4.rar
http://filefloater.com/Ti0/Bhaskar.Oru.Rascal.2018.4K.Untouched.UHD.MP4.ESubs.Tamil-MTR.part5.rar
http://filefloater.com/Ti1/Bhaskar.Oru.Rascal.2018.4K.Untouched.UHD.MP4.ESubs.Tamil-MTR.part6.rar
http://filefloater.com/Ti2/Bhaskar.Oru.Rascal.2018.4K.Untouched.UHD.MP4.ESubs.Tamil-MTR.srt



шаблоны для dle 11.2