Mayaanadhi (2017) Malayalam - 720p - BluRay - x264 - DTS 5.1 - ESubs-MTR

Mayaanadhi (2017) Malayalam - 720p - BluRay - x264 - DTS 5.1 - ESubs-MTR





Format                      : Matroska
Format version              : Version 4 / Version 2
File size                   : 5.08 GiB
Duration                    : 2 h 15 min
Overall bit rate            : 5 367 kb/s
Encoded date                : UTC 2018-10-17 03:30:04
Writing application         : mkvmerge v24.0.0 ('Beyond The Pale') 64-bit
Writing library             : libebml v1.3.6 + libmatroska v1.4.9

Video
ID                          : 1
Format                      : AVC
Format/Info                 : Advanced Video Codec
Format profile              : High@L4.1
Format settings, CABAC      : Yes
Format settings, RefFrames  : 4 frames
Codec ID                    : V_MPEG4/ISO/AVC
Duration                    : 2 h 15 min
Bit rate                    : 3 853 kb/s
Width                       : 1 280 pixels
Height                      : 544 pixels
Display aspect ratio        : 2.35:1
Frame rate mode             : Constant
Frame rate                  : 24.000 FPS
Color space                 : YUV
Chroma subsampling          : 4:2:0
Bit depth                   : 8 bits
Scan type                   : Progressive
Bits/(Pixel*Frame)          : 0.231
Stream size                 : 3.64 GiB (72%)
Writing library             : x264 core 155 r2901 7d0ff22
Encoding settings           : cabac=1 / ref=3 / deblock=1:0:0 / analyse=0x3:0x111 / me=hex / subme=5 / psy=1 / psy_rd=1.00:0.00 / mixed_ref=1 / me_range=16 / chroma_me=1 / trellis=0 / 8x8dct=1 / cqm=0 / deadzone=21,11 / fast_pskip=0 / chroma_qp_offset=0 / threads=12 / lookahead_threads=3 / sliced_threads=0 / nr=0 / decimate=1 / interlaced=0 / bluray_compat=0 / constrained_intra=0 / bframes=3 / b_pyramid=2 / b_adapt=1 / b_bias=0 / direct=3 / weightb=1 / open_gop=0 / weightp=1 / keyint=250 / keyint_min=24 / scenecut=40 / intra_refresh=0 / rc_lookahead=0 / rc=2pass / mbtree=0 / bitrate=3853 / ratetol=1.0 / qcomp=0.50 / qpmin=0 / qpmax=69 / qpstep=4 / cplxblur=20.0 / qblur=0.5 / vbv_maxrate=62500 / vbv_bufsize=78125 / nal_hrd=none / filler=0 / ip_ratio=1.40 / pb_ratio=1.30 / aq=0
Language                    : Malayalam
Default                     : Yes
Forced                      : Yes
Color range                 : Limited
Matrix coefficients         : BT.709

Audio
ID                          : 2
Format                      : DTS
Format/Info                 : Digital Theater Systems
Mode                        : 16
Format settings, Endianness : Big
Codec ID                    : A_DTS
Duration                    : 2 h 15 min
Bit rate mode               : Constant
Bit rate                    : 1 512 kb/s
Channel(s)                  : 6 channels
Channel positions           : Front: L C R, Side: L R, LFE
Sampling rate               : 48.0 kHz
Frame rate                  : 93.750 FPS (512 SPF)
Bit depth                   : 24 bits
Compression mode            : Lossy
Stream size                 : 1.43 GiB (28%)
Language                    : Malayalam
Default                     : Yes
Forced                      : No

Text
ID                          : 3
Format                      : UTF-8
Codec ID                    : S_TEXT/UTF8
Codec ID/Info               : UTF-8 Plain Text
Duration                    : 2 h 11 min
Bit rate                    : 38 b/s
Count of elements           : 1317
Stream size                 : 36.7 KiB (0%)
Language                    : English
Default                     : No
Forced                      : No

Menu
00:00:00.000                : en:00:00:00.000
00:14:54.375                : en:00:14:54.375
00:17:53.500                : en:00:17:53.500
00:27:54.625                : en:00:27:54.625
00:35:24.333                : en:00:35:24.333
00:49:31.375                : en:00:49:31.375
00:59:10.000                : en:00:59:10.000
01:05:06.417                : en:01:05:06.417
01:11:19.542                : en:01:11:19.542
01:22:15.875                : en:01:22:15.875
01:30:21.000                : en:01:30:21.000
01:37:33.583                : en:01:37:33.583
01:53:04.667                : en:01:53:04.667
01:59:49.417                : en:01:59:49.417
02:12:45.000                : en:02:12:45.000






SINGLE DIRECT FAST LINKS

http://www.heroupload.us/5df696416b8131e7/Maayanadhi.2017.Malayalam.720p.BLURAY.x264.DTS.5.1.ESubs-MTR.mkv


1GB LINKS

http://www.heroupload.us/cfb84ddfc14b131b/Maayanadhi.2017.Malayalam.720p.BLURAY.x264.DTS.5.1.ESubs-MTR.part1.rar
http://www.heroupload.us/d29c89b6c1e7f9be/Maayanadhi.2017.Malayalam.720p.BLURAY.x264.DTS.5.1.ESubs-MTR.part2.rar
http://www.heroupload.us/664c03c50a6530d4/Maayanadhi.2017.Malayalam.720p.BLURAY.x264.DTS.5.1.ESubs-MTR.part3.rar
http://www.heroupload.us/0e3f44cdb9fdd839/Maayanadhi.2017.Malayalam.720p.BLURAY.x264.DTS.5.1.ESubs-MTR.part4.rar
http://www.heroupload.us/0bd8dea59b93c4b3/Maayanadhi.2017.Malayalam.720p.BLURAY.x264.DTS.5.1.ESubs-MTR.part5.rar
http://www.heroupload.us/c9d72ce1f508106d/Maayanadhi.2017.Malayalam.720p.BLURAY.x264.DTS.5.1.ESubs-MTR.part6.rar



http://filefloater.com/1L2q/Maayanadhi.2017.Malayalam.720p.BLURAY.x264.DTS.5.1.ESubs-MTR.part1.rar
http://filefloater.com/1L2r/Maayanadhi.2017.Malayalam.720p.BLURAY.x264.DTS.5.1.ESubs-MTR.part2.rar
http://filefloater.com/1L2s/Maayanadhi.2017.Malayalam.720p.BLURAY.x264.DTS.5.1.ESubs-MTR.part3.rar
http://filefloater.com/1L2t/Maayanadhi.2017.Malayalam.720p.BLURAY.x264.DTS.5.1.ESubs-MTR.part4.rar
http://filefloater.com/1L2u/Maayanadhi.2017.Malayalam.720p.BLURAY.x264.DTS.5.1.ESubs-MTR.part5.rar
http://filefloater.com/1L2v/Maayanadhi.2017.Malayalam.720p.BLURAY.x264.DTS.5.1.ESubs-MTR.part6.rar




Buy Premium From My Links & Support Me
шаблоны для dle 11.2