Shaan (1980) 720p - HD-DVDRip - AVC - AAC-Bollywooda2z

Shaan (1980) 720p - HD-DVDRip - AVC - AAC-Bollywooda2z



Format                      : MPEG-4
Format profile              : Base Media / Version 2
Codec ID                    : mp42 (isom/mp42)
File size                   : 861 MiB
Duration                    : 2 h 45 min
Overall bit rate mode       : Variable
Overall bit rate            : 728 kb/s
Encoded date                : UTC 2018-10-25 01:28:26
Tagged date                 : UTC 2018-10-25 01:28:26
gsst                        : 0
gstd                        : 9928852

Video
ID                          : 1
Format                      : AVC
Format/Info                 : Advanced Video Codec
Format profile              : Main@L3.1
Format settings, CABAC      : Yes
Format settings, RefFrames  : 3 frames
Codec ID                    : avc1
Codec ID/Info               : Advanced Video Coding
Duration                    : 2 h 45 min
Bit rate                    : 599 kb/s
Width                       : 1 280 pixels
Height                      : 720 pixels
Display aspect ratio        : 16:9
Frame rate mode             : Constant
Frame rate                  : 25.000 FPS
Color space                 : YUV
Chroma subsampling          : 4:2:0
Bit depth                   : 8 bits
Scan type                   : Progressive
Bits/(Pixel*Frame)          : 0.026
Stream size                 : 709 MiB (82%)
Title                       : ISO Media file produced by Google Inc. Created on: 10/24/2018.
Encoded date                : UTC 2018-10-25 01:28:26
Tagged date                 : UTC 2018-10-25 01:28:26
Color range                 : Limited
Color primaries             : BT.709
Transfer characteristics    : BT.709
Matrix coefficients         : BT.709

Audio
ID                          : 2
Format                      : AAC
Format/Info                 : Advanced Audio Codec
Format profile              : LC
Codec ID                    : 40
Duration                    : 2 h 45 min
Bit rate mode               : Variable
Bit rate                    : 126 kb/s
Channel(s)                  : 2 channels
Channel positions           : Front: L R
Sampling rate               : 44.1 kHz
Frame rate                  : 43.066 FPS (1024 SPF)
Compression mode            : Lossy
Stream size                 : 149 MiB (17%)
Title                       : ISO Media file produced by Google Inc. Created on: 10/24/2018.
Encoded date                : UTC 2018-10-25 01:28:26
Tagged date                 : UTC 2018-10-25 01:28:26



SINGLE DIRECT FAST LINKS

http://www.heroupload.us/1f9415f0953ba797/Shaan.1980.720p-Bollywooda2z.mp4



http://filefloater.com/V84/Shaan.1980.720p-Bollywooda2z.mp4


Buy Premium From My Links & Support Me
шаблоны для dle 11.2