The Darkest Minds (2018) BluRay 720p x264 DD5.1 [Dual Audio][Hindi+English] Katyayan

The Darkest Minds (2018) BluRay 720p x264 DD5.1 [Dual Audio][Hindi+English] Katyayan





General
Format                                   : Matroska
Format version                           : Version 4 / Version 2
File size                                : 898 MiB
Duration                                 : 1 h 43 min
Overall bit rate                         : 1 209 kb/s
Encoded date                             : UTC 2018-10-18 21:38:06
Writing application                      : mkvmerge v26.0.0 ('In The Game') 64-bit
Writing library                          : libebml v1.3.6 + libmatroska v1.4.9
Cover                                    : Yes
Attachments                              : The Darkest Minds (2018) Cover.jpg

Video
ID                                       : 1
Format                                   : AVC
Format/Info                              : Advanced Video Codec
Format profile                           : High@L3.1
Format settings                          : CABAC / 4 Ref Frames
Format settings, CABAC                   : Yes
Format settings, RefFrames               : 4 frames
Codec ID                                 : V_MPEG4/ISO/AVC
Duration                                 : 1 h 43 min
Bit rate                                 : 950 kb/s
Width                                    : 1 280 pixels
Height                                   : 540 pixels
Display aspect ratio                     : 2.40:1
Original display aspect ratio            : 2.40:1
Frame rate mode                          : Constant
Frame rate                               : 23.976 (24000/1001) FPS
Original frame rate                      : 23.976 (23976/1000) FPS
Color space                              : YUV
Chroma subsampling                       : 4:2:0
Bit depth                                : 8 bits
Scan type                                : Progressive
Bits/(Pixel*Frame)                       : 0.057
Stream size                              : 702 MiB (78%)
Writing library                          : x264 core 152 r2851kMod ba24899
Language                                 : English
Default                                  : Yes
Forced                                   : No

Audio #1
ID                                       : 2
Format                                   : AAC
Format/Info                              : Advanced Audio Codec
Format profile                           : HE-AAC / LC
Format settings                          : Explicit
Codec ID                                 : A_AAC-2
Duration                                 : 1 h 43 min
Bit rate                                 : 64.0 kb/s
Channel(s)                               : 2 channels
Channel positions                        : Front: L R
Sampling rate                            : 48.0 kHz / 24.0 kHz
Frame rate                               : 23.438 FPS (1024 SPF)
Compression mode                         : Lossy
Stream size                              : 47.5 MiB (5%)
Title                                    : -=!Katyayan!=-
Language                                 : English
Default                                  : No
Forced                                   : No

Audio #2
ID                                       : 3
Format                                   : AAC
Format/Info                              : Advanced Audio Codec
Format profile                           : LC
Codec ID                                 : A_AAC-2
Duration                                 : 1 h 43 min
Bit rate                                 : 192 kb/s
Channel(s)                               : 6 channels
Channel positions                        : Front: L C R, Side: L R, LFE
Sampling rate                            : 48.0 kHz
Frame rate                               : 46.875 FPS (1024 SPF)
Compression mode                         : Lossy
Stream size                              : 143 MiB (16%)
Title                                    : -=!Katyayan!=-
Language                                 : Hindi
Default                                  : Yes
Forced                                   : Yes

Text
ID                                       : 4
Format                                   : VobSub
Muxing mode                              : zlib
Codec ID                                 : S_VOBSUB
Codec ID/Info                            : Picture based subtitle format used on DVDs
Duration                                 : 1 h 36 min
Bit rate                                 : 9 229 b/s
Count of elements                        : 1529
Stream size                              : 6.39 MiB (1%)
Title                                    : -=!Katyayan!=-
Language                                 : English
Default                                  : Yes
Forced                                   : Yes










SINGLE DIRECT FAST LINKS
http://www.heroupload.us/952e32b0c64b5e15/The.Darkest.Minds.2018.BluRay.720p.x264.Dual.Audio.Hindi.DD5.1+English.AAC.Esub-Katyayan.mkv
http://www.heroupload.us/1dc5dfe71149a4ab/The.Darkest.Minds.2018.BluRay.720p.x264.Dual.Audio.Hindi.DD5.1+English.AAC.Esub-Katyayan.srt


http://filefloater.com/V1t/The.Darkest.Minds.2018.BluRay.720p.x264.Dual.Audio.Hindi.DD5.1+English.AAC.Esub-Katyayan.mkv
http://filefloater.com/V1u/The.Darkest.Minds.2018.BluRay.720p.x264.Dual.Audio.Hindi.DD5.1+English.AAC.Esub-Katyayan.srt




Buy Premium From My Links & Support Me
шаблоны для dle 11.2